#TITLE:The legend of STINK;
#SUBTITLE:;
#ARTIST:Omega vs. ZZ vs. Someone's Ass;
#TITLETRANSLIT:;
#SUBTITLETRANSLIT:;
#ARTISTTRANSLIT:;
#CREDIT:;
#BANNER:The legend of STINK-banner.PNG;
#BACKGROUND:The legend of STINK-bg.PNG;
#LYRICSPATH:;
#CDTITLE:./CDTITLES/DANCE DANCE REVOLUTION EXTREME.PNG;
#MUSIC:The legend of STINK.mp3;
#OFFSET:0.373;
#SAMPLESTART:0.020;
#SAMPLELENGTH:12.000;
#SELECTABLE:YES;
#BPMS:0.000=150.000,84.000=300.000,212.000=280.000,244.000=300.000,276.000=333.000,410.000=166.501,411.000=83.240,412.000=85.001,428.000=170.001,468.000=599.996,608.000=579.996,608.500=559.997,609.000=539.997,609.500=519.997,610.000=499.997,610.500=479.997,611.000=459.997,611.500=439.997,612.000=419.997,612.500=399.997,613.000=379.997,613.500=359.997,614.000=339.998,614.500=319.998,615.000=299.998,615.500=279.998,616.000=259.998,616.500=239.998,617.000=219.998,617.500=199.998,618.000=179.998,618.500=159.998,619.000=139.998,619.500=119.998,620.000=99.998;
#STOPS:411.000=0.780
;
#BGCHANGES:;
// cache tags:
#FIRSTBEAT:8.667;
#LASTBEAT:622.500;
#SONGFILENAME:Songs/Music V.I.P ^_^/The legend of STINK/The legend of STINK.sm;
#HASMUSIC:1;
#HASBANNER:1;
#MUSICLENGTH:143.890;
// end cache tags

//---------------dance-single - Copied from MANIAC----------------
#NOTES:
     dance-single:
     Copied from MANIAC:
     Challenge:
     11:
     0.544,0.973,0.299,0.751,0.049,397.000,43.000,108.000,0.000,0.000:
0000
0000
0000
0000
,
0000
0000
0000
0000
,
0000
0000
0200
0000
0000
0000
0300
0000
0000
0000
0000
0000
,
0000
0000
0000
0000
,
0000
0000
0000
0000
,
0000
0000
0000
0000
,
0000
0000
0000
0000
,
0000
0200
0300
0000
,
0000
0000
0000
0000
,
2000
0002
3003
0000
,
0000
0000
0000
0000
,
0000
0000
0000
0000
0000
0000
0000
0000
0000
0000
0000
2002
0000
0000
0000
0000
,
0000
0000
3003
0000
,
0000
0000
0000
0000
,
0000
0000
0000
0000
0000
0000
0000
0020
,
0000
0030
0000
0000
0000
0000
0000
2000
,
0000
0000
0000
3000
0000
0000
0000
0000
0000
0000
0000
0000
0000
0000
0000
0000
0000
0000
0000
0000
0000
0000
0002
0000
,
0000
0000
0200
0000
0000
0000
0303
0000
0000
0000
0000
0000
,
0000
0000
0000
0000
,
0000
0000
0000
0000
,
0000
0000
0000
0000
0000
0000
0000
0220
0000
0000
0000
0330
0000
0000
0000
0000
,
2002
0000
0000
0000
,
0000
0000
0000
3003
,
1000
0010
0100
0001
,
1000
0100
0010
0001
,
2200
0000
0000
3300
,
0001
0100
0010
1000
,
0100
0010
0001
0100
,
0001
1000
0010
0100
,
0022
0000
0000
0000
,
0000
0000
0000
0000
,
0000
0000
0033
1000
,
0010
1000
0001
0100
,
0020
0030
1000
0010
,
0100
0010
1000
0001
,
0220
0330
0000
0000
,
2002
0000
3003
0000
,
1000
0000
0010
0000
0000
0100
0000
0001
,
1000
0000
0010
0000
0000
0100
0000
0001
,
1000
0000
0100
0000
0000
0010
0000
0001
,
0101
0110
1010
0110
,
0001
0000
0100
0000
0000
0010
0000
1000
,
0010
0000
0100
0000
0000
0010
0000
1000
,
0010
0000
1000
0000
0000
0001
0000
0010
,
0110
1010
1001
0101
,
1000
0000
0100
0000
0000
1000
0000
0001
,
0010
0000
0100
0000
0000
1000
0000
0001
,
1000
0000
0010
0000
0000
0100
0000
0010
,
1010
1001
0101
0011
,
0100
0000
0001
0000
0000
1000
0000
0010
,
0100
0000
0001
0000
0000
0010
0000
0100
,
0220
0000
0330
0000
,
2002
3003
0000
0000
,
2020
0000
0000
0000
,
0000
0000
0000
0000
0000
0000
0000
0000
3030
0000
0000
0000
0000
0000
0000
0202
,
0000
0303
0000
0000
,
0000
2200
0000
0000
3300
0000
0000
0000
,
0000
0000
0000
0022
0000
0033
0000
0000
,
0000
0000
0000
0200
,
0300
0000
0000
0000
,
0020
0030
0000
0000
,
1000
0100
0010
0001
0100
0010
1000
0100
,
0010
0001
0100
0010
1000
0001
1000
0010
,
0100
0001
0010
0100
1000
0001
0100
0001
,
1000
0010
1000
0100
1000
0001
0100
0000
,
0001
0010
0100
1000
0010
0100
0001
0010
,
0100
1000
0010
0100
0001
1000
0001
0100
,
0010
1000
0100
0010
0001
1000
0010
1000
,
0001
0100
0001
0010
0001
1000
0010
0000
,
2000
0000
3010
0000
,
0200
0000
0301
0000
,
0020
0000
0130
0000
,
2000
0000
3001
0000
,
0200
0000
0310
0000
,
2000
0000
3100
0000
,
0020
0000
0031
0000
,
0020
0000
1030
0000
,
0002
0000
0103
0000
,
0020
0000
1030
0000
,
0200
0000
0301
0000
,
0020
0000
0031
0000
,
2000
0000
3010
0000
,
0200
0000
1300
0000
,
0002
0000
0013
0000
,
0200
0000
0301
0000
,
2000
3001
0100
0000
,
0002
0103
0010
0000
,
0200
0301
1000
0000
,
0020
0130
0001
0000
,
2000
3010
0100
0000
,
0002
0013
0100
0000
,
0020
0130
1000
0000
,
0200
0301
0010
0000
,
2000
0000
3001
0100
0010
0000
0000
0000
,
0002
0000
0103
0010
1000
0000
0000
0000
,
0200
0000
0310
1000
0100
0000
0000
0000
,
0020
0000
0031
0100
0010
0000
0000
0000
,
2200
0300
3100
0000
,
0022
0030
0013
0000
,
2020
3000
1030
0000
,
0202
0003
0301
0000
,
2002
0000
0000
0000
,
0000
0000
0000
0000
0000
0000
0000
0000
0000
0000
0000
0000
0000
3003
0000
0000
,
2020
3030
0202
0303
,
0220
0330
2002
3003
,
0022
0033
2200
3300
,
2002
3003
0220
0330
,
0000
0000
0000
0000
0000
0000
0000
0000
0000
2000
0000
0000
0000
3000
0000
0000
,
0000
0000
0000
0000
0000
0000
0000
0200
0000
0000
0300
0000
,
0000
0000
0000
0020
0000
0030
0000
0000
,
0000
0000
0000
0000
0000
0000
0000
0000
0000
0202
0000
0000
0000
0303
0000
0000
,
0000
0000
0000
0000
0000
0000
0000
0000
0000
2000
0000
0000
0000
0020
0000
0000
,
0000
3030
0000
0000
0000
0000
0000
0000
0000
0000
0000
0000
0001
0100
0001
0100
,
0000
0000
0000
0000
0000
2002
0000
0000
0000
0000
0000
0000
0000
0000
0000
0000
,
0000
0000
0000
0000
0000
3003
0000
0000
0000
0000
0000
0000
0000
0000
0000
0000
,
1000
0000
0010
0000
,
0100
0000
0001
0000
0100
0000
1000
0100
,
1000
0001
1000
0001
,
1000
0001
1000
0001
,
0100
0010
0100
0010
,
0100
0010
0100
0010
,
1000
0100
1000
0100
,
0010
0001
0010
0001
,
0100
0001
0100
0001
,
1000
0010
1000
0010
,
1000
0100
0010
0001
,
1000
0100
0010
0001
,
1000
0010
0100
0001
,
1000
0010
0100
0001
,
0100
0010
1000
0001
,
0100
0010
1000
0001
,
0100
0001
1000
0010
,
0100
0001
1000
0010
,
1000
0100
0010
0001
,
0010
0100
1000
0100
,
0010
0001
0010
0100
,
1000
0010
1000
0010
,
0100
0001
0100
0001
,
1000
0010
1000
0010
,
0100
0001
0100
0001
,
1000
0100
0010
0001
,
0100
0010
1000
0100
,
0010
0001
0100
0010
,
1000
0001
0100
0001
,
1000
0010
0100
0001
,
2000
0000
0000
0000
,
3000
0000
0000
0000
,
0002
0000
0000
0000
,
0003
0000
0000
0000
,
2200
0000
3300
0000
,
0022
0000
0033
0000
,
2002
0000
0000
0000
,
0000
0000
0000
0000
,
0000
0000
0000
0000
,
0000
0000
0000
0000
,
0000
0000
0000
0000
0000
3003
0000
0000
;
